Web
Analytics
What.If.2021.S01E06.WEBRip.x264-ION10 > 외국티비 > 공유의 바다 바다보아

팝업레이어 알림

block_2.png
 [구글검색] 구글에서 바다보아 검색 - 구글에서 토렌트를 검색하실 때에 검색어 뒤에 바다보아를 꼭 붙여서 검색하세요.     바다보아에서 광고중인 웹에 문제가 있다면 메뉴에 나와 있는 운영자 이메일로 연락 주십시오.     사용자님의 다운로드가 완료될 때까지 저희가 함께하겠습니다. 편안하고 즐거운 시간 되십시오.

파일몽

  

  
What.If.2021.S01E06.WEBRip.x264-ION10  직접 다운로드  무료 다운로드  무제한 다운로드  초고속 다운로드
  • 파일 설명:     Screens... (click to enlarge): Infolink -> https://www.imdb.com/title/tt10168312/Quote:MediainfoVideoID : 1Format : AVCFormat/Info : Advanced Video CodecFormat profile : [email protected]Format settings : CABAC / 5 Ref FramesFormat settings, CABAC : YesFormat settings, Reference frames : 5 framesCodec ID : avc1Codec ID/Info : Advanced Video CodingDuration : 31 min 2 sBit rate : 1 046 kb/sNominal bit rate : 1 100 kb/sWidth : 720 pixelsHeight : 328 pixelsDisplay aspect ratio : 2.2:1Frame rate mode : ConstantFrame rate : 24.000 FPSColor space : YUVChroma subsampling : 4:2:0Bit depth : 8 bitsScan type : ProgressiveBits/(Pixel*Frame) : 0.185Stream size : 232 MiB (80%)Title : What.If.2021.S01E06.WEBRip.x264-ION10Writing library : x264 core 148 r2795M aaa9aa8Encoding settings : cabac=1 / ref=5 / deblock=1:1:1 / analyse=0x3:0x113 / me=umh / subme=9 / psy=1 / psy_rd=0.40:0.00 / mixed_ref=1 / me_range=16 / chroma_me=1 / trellis=2 / 8x8dct=1 / cqm=0 / deadzone=21,11 / fast_pskip=1 / chroma_qp_offset=-2 / threads=24 / lookahead_threads=2 / sliced_threads=0 / nr=0 / decimate=1 / interlaced=0 / bluray_compat=0 / constrained_intra=0 / bframes=5 / b_pyramid=2 / b_adapt=2 / b_bias=0 / direct=3 / weightb=1 / open_gop=0 / weightp=2 / keyint=250 / keyint_min=24 / scenecut=40 / intra_refresh=0 / rc_lookahead=50 / rc=abr / mbtree=1 / bitrate=1100 / ratetol=1.0 / qcomp=0.60 / qpmin=0 / qpmax=69 / qpstep=4 / ip_ratio=1.40 / aq=1:0.60Encoded date : UTC 2021-09-15 06:59:24Tagged date : UTC 2021-09-15 06:59:24Codec configuration box : avcCAudioID : 2Format : AAC LCFormat/Info : Advanced Audio Codec Low ComplexityCodec ID : mp4a-40-2Duration : 31 min 2 sBit rate mode : ConstantBit rate : 256 kb/sChannel(s) : 2 channelsChannel layout : L RSampling rate : 48.0 kHzFrame rate : 46.875 FPS (1024 SPF)Compression mode : LossyStream size : 56.8 MiB (20%)Title : What.If.2021.S01E06.WEBRip.x264-ION10Language : EnglishDefault : YesAlternate group : 1Encoded date : UTC 2021-09-15 06:59:24Tagged date : UTC 2021-09-15 06:59:24 What.If.2021.S01E06.WEBRip.x264-ION10…
  • 인기 연관 검색어 구글 검색:    
  • 관련 자료(가나다순):    20-20 2021 06 11 What Happened to Vanessa WEB h264-BAE TGx ⭐    When Calls the Heart S08E05 What the Heart Wants 고화질 HDTV x264-…
  • 관련 자료(시간순):    What We Do in the Shadows S02E08 고화질 WEB H264-OATH eztv - 바다보아    Marvel's What If (2021) S01E06 (2160p DSNP WEB-DL x265 HEVC 10b…
  • 같은 시각 자료:    UFC.Tuesday.Night.Contender.Series.S05W03.WEB-DL.H264.Fight-BB    What.If.2021.S01E06.DSNP.초고화질.10bit.DDP.5.1.x265.[HashMiner]
모바일로 고화질 실시간 다시보기 합법으로 받을 수 있는 유일한 방법 토렌트에서 다운로드가 안될 때 토렌트에서 찾는 파일이 없을 때

What.If.2021.S01E06.WEBRip.x264-ION10
댓글 0 조회 3 인증 0 신고 0



Screens... (click to enlarge):








Infolink -> https://www.imdb.com/title/tt10168312/

Quote:

Mediainfo
Video
ID : 1
Format : AVC
Format/Info : Advanced Video Codec
Format profile : [email protected]
Format settings : CABAC / 5 Ref Frames
Format settings, CABAC : Yes
Format settings, Reference frames : 5 frames
Codec ID : avc1
Codec ID/Info : Advanced Video Coding
Duration : 31 min 2 s
Bit rate : 1 046 kb/s
Nominal bit rate : 1 100 kb/s
Width : 720 pixels
Height : 328 pixels
Display aspect ratio : 2.2:1
Frame rate mode : Constant
Frame rate : 24.000 FPS
Color space : YUV
Chroma subsampling : 4:2:0
Bit depth : 8 bits
Scan type : Progressive
Bits/(Pixel*Frame) : 0.185
Stream size : 232 MiB (80%)
Title : What.If.2021.S01E06.WEBRip.x264-ION10
Writing library : x264 core 148 r2795M aaa9aa8
Encoding settings : cabac=1 / ref=5 / deblock=1:1:1 / analyse=0x3:0x113 / me=umh / subme=9 / psy=1 / psy_rd=0.40:0.00 / mixed_ref=1 / me_range=16 / chroma_me=1 / trellis=2 / 8x8dct=1 / cqm=0 / deadzone=21,11 / fast_pskip=1 / chroma_qp_offset=-2 / threads=24 / lookahead_threads=2 / sliced_threads=0 / nr=0 / decimate=1 / interlaced=0 / bluray_compat=0 / constrained_intra=0 / bframes=5 / b_pyramid=2 / b_adapt=2 / b_bias=0 / direct=3 / weightb=1 / open_gop=0 / weightp=2 / keyint=250 / keyint_min=24 / scenecut=40 / intra_refresh=0 / rc_lookahead=50 / rc=abr / mbtree=1 / bitrate=1100 / ratetol=1.0 / qcomp=0.60 / qpmin=0 / qpmax=69 / qpstep=4 / ip_ratio=1.40 / aq=1:0.60
Encoded date : UTC 2021-09-15 06:59:24
Tagged date : UTC 2021-09-15 06:59:24
Codec configuration box : avcC

Audio
ID : 2
Format : AAC LC
Format/Info : Advanced Audio Codec Low Complexity
Codec ID : mp4a-40-2
Duration : 31 min 2 s
Bit rate mode : Constant
Bit rate : 256 kb/s
Channel(s) : 2 channels
Channel layout : L R
Sampling rate : 48.0 kHz
Frame rate : 46.875 FPS (1024 SPF)
Compression mode : Lossy
Stream size : 56.8 MiB (20%)
Title : What.If.2021.S01E06.WEBRip.x264-ION10
Language : English
Default : Yes
Alternate group : 1
Encoded date : UTC 2021-09-15 06:59:24
Tagged date : UTC 2021-09-15 06:59:24

What.If.2021.S01E06.WEBRip.x264-ION10

번역하기: 한국 한국어


<< 이 게시판에서 관련된 자료 목록 >>
0 Comments     0.0 / 0
 [구글검색] 구글에서 바다보아 검색 - 구글에서 토렌트를 검색하실 때에 검색어 뒤에 바다보아를 꼭 붙여서 검색하세요.     바다보아에서 광고중인 웹에 문제가 있다면 메뉴에 나와 있는 운영자 이메일로 연락 주십시오.     사용자님의 다운로드가 완료될 때까지 저희가 함께하겠습니다. 편안하고 즐거운 시간 되십시오.

파일비트

  

  

IMFORMATION STORE

상단으로 가운데로 하단으로